Download Ab Tak Chhappan 2 (2015) Hindi 720p AMZN WEBRip ⭐970 MB⭐ AAC 2CH ESub x264 - Shadow (BonsaiHD) torrent - GloDLS
Torrent Details For "Ab Tak Chhappan 2 (2015) Hindi 720p AMZN WEBRip ⭐970 MB⭐ AAC 2CH ESub x264 - Shad..."

Ab Tak Chhappan 2 (2015) Hindi 720p AMZN WEBRip ⭐970 MB⭐ AAC 2CH ESub x264 - Shad...

To download this torrent, you need a BitTorrent client: Vuze or BTGuard
Download this torrent
Download using Magnet Link

Health:
Seeds: 0
Leechers: 2
Completed:
Last Checked: 01-08-2020 23:42:50

Uploader Reputation points : 946
External: Torrent






Write a Review for the Uploader:   5   Say Thanks with one good review:
Share on Facebook


Details
Name:Ab Tak Chhappan 2 (2015) Hindi 720p AMZN WEBRip ⭐970 MB⭐ AAC 2CH ESub x264 - Shad...
Description:
If You Need Best Quality in Low Size. Then This Is For You

Please Don't Stop Your Tourrent after download Complete. For seeding



Movie name :

Ab Tak Chhappan 2 (2015) Hindi 720p AMZN WEBRip ⭐970 MB⭐ AAC 2CH ESub x264 - Shadow (BonsaiHD)


Quote:

Storyline : A retired policeman returns to his job to fight a crime wave that was once responsible for leaving his son without a mother.

Release date : 27 February 2015 (India)

File size :  970 MB

Encoded by :- ⭐BonsaiHD⭐

Source :-⭐BonsaiHD⭐











General
Unique ID                                : 317037486428157173131388599734580266567 (0xEE8332E885FB3F9BB1A85F938AC3C647)
Complete name                            : Ab.Tak.Chhappan.2.2015.Hindi.720p.AMZN.WEBRip.AAC.2CH.ESub.x264.BonsaiHD.mkv
Format                                   : Matroska
Format version                           : Version 4
File size                                : 972 MiB
Duration                                 : 1 h 41 min
Overall bit rate                         : 1 337 kb/s
Movie name                               : Shadow (BonsaiHD.Fun)
Encoded date                             : UTC 2020-08-01 22:16:23
Writing application                      : mkvmerge v48.0.0 ('Fortress Around Your Heart') 64-bit
Writing library                          : libebml v1.4.0 + libmatroska v1.6.0

Video
ID                                       : 1
Format                                   : AVC
Format/Info                              : Advanced Video Codec
Format profile                           : [email protected]
Format settings                          : CABAC / 3 Ref Frames
Format settings, CABAC                   : Yes
Format settings, Reference frames        : 3 frames
Codec ID                                 : V_MPEG4/ISO/AVC
Duration                                 : 1 h 41 min
Bit rate                                 : 1 206 kb/s
Width                                    : 1 280 pixels
Height                                   : 544 pixels
Display aspect ratio                     : 2.35:1
Original display aspect ratio            : 2.35:1
Frame rate mode                          : Constant
Frame rate                               : 25.000 FPS
Color space                              : YUV
Chroma subsampling                       : 4:2:0
Bit depth                                : 8 bits
Scan type                                : Progressive
Bits/(Pixel*Frame)                       : 0.069
Stream size                              : 877 MiB (90%)
Title                                    : Shadow (BonsaiHD.Fun)
Default                                  : Yes
Forced                                   : No

Audio
ID                                       : 2
Format                                   : AAC LC
Format/Info                              : Advanced Audio Codec Low Complexity
Codec ID                                 : A_AAC-2
Duration                                 : 1 h 41 min
Bit rate                                 : 128 kb/s
Channel(s)                               : 2 channels
Channel layout                           : L R
Sampling rate                            : 48.0 kHz
Frame rate                               : 46.875 FPS (1024 SPF)
Compression mode                         : Lossy
Stream size                              : 93.0 MiB (10%)
Title                                    : Shadow (BonsaiHD.Fun)
Language                                 : Hindi
Default                                  : Yes
Forced                                   : No

Text
ID                                       : 3
Format                                   : UTF-8
Codec ID                                 : S_TEXT/UTF8
Codec ID/Info                            : UTF-8 Plain Text
Duration                                 : 1 h 35 min
Bit rate                                 : 60 b/s
Count of elements                        : 1373
Stream size                              : 42.4 KiB (0%)
Title                                    : Shadow (BonsaiHD.Fun)
Language                                 : English
Default                                  : Yes
Forced                                   : No

YouTube Video:
Category:Movies
Language:Hindi  Hindi
Total Size:971.57 MB
Info Hash:2A7CDE5A016EA7DA05901674FE042594BC662BAA
Added By:trueHD Verified Uploader
Date Added:2020-08-02 06:42:49
Torrent Status:Torrent Verified


Ratings:Not Yet Rated (Log in to rate it)


Tracker:
udp://tracker.coppersurfer.tk:6969/announce

This Torrent also has backup trackers
URLSeedersLeechersCompleted
udp://tracker.coppersurfer.tk:6969/announce000
udp://tracker.leechers-paradise.org:6969/announce000
udp://tracker.cyberia.is:6969/announce000
http://tracker.nyap2p.com:8080/announce000
udp://p4p.arenabg.com:1337/announce000
udp://explodie.org:6969/announce000
udp://tracker.opentrackr.org:1337/announce000
udp://tracker.tiny-vps.com:6969/announce000
udp://exodus.desync.com:6969/announce000
udp://tracker.torrent.eu.org:451/announce000
udp://tracker.moeking.me:6969/announce000
udp://ipv4.tracker.harry.lu:80/announce000
udp://open.stealth.si:80/announce000
udp://9.rarbg.to:2710/announce000
udp://opentor.org:2710/announce000


File List: 





Comments
No comments still posted